<?xml version="1.0" standalone="no"?>
<!DOCTYPE svg PUBLIC "-//W3C//DTD SVG 1.1//EN" "http://www.w3.org/Graphics/SVG/1.1/DTD/svg11.dtd" >
<svg xmlns="http://www.w3.org/2000/svg">
<metadata>Generated by IcoMoon</metadata>
<defs>
<font id="cloudflare-font" horiz-adv-x="1024">
<font-face units-per-em="1024" ascent="960" descent="-64" />
<missing-glyph horiz-adv-x="1024" />
<glyph unicode="&#x20;" d="" horiz-adv-x="512" />
<glyph unicode="&#xf000;" d="M716.8 409.6l-204.8 204.8-204.8-204.8v-51.2h409.6z" />
<glyph unicode="&#xf001;" d="M307.2 512l204.8-204.8 204.8 204.8v51.2h-409.6z" />
<glyph unicode="&#xf002;" d="M614.4 665.6l-204.8-204.8 204.8-204.8h51.2v409.6z" />
<glyph unicode="&#xf003;" d="M460.8 256l204.8 204.8-204.8 204.8h-51.2v-409.6z" />
<glyph unicode="&#xf004;" d="M512-51.2c-281.6 0-512 230.4-512 512s230.4 512 512 512 512-230.4 512-512c0-281.6-230.4-512-512-512zM460.8 256l307.2 307.2-102.4 102.4-204.8-204.8-102.4 102.4-102.4-102.4 204.8-204.8z" />
<glyph unicode="&#xf005;" d="M512-51.2c-281.6 0-512 230.4-512 512s230.4 512 512 512 512-230.4 512-512c0-281.6-230.4-512-512-512zM409.6 153.6h204.8v153.6h-204.8v-153.6zM409.6 409.6h204.8v358.4h-204.8v-358.4z" />
<glyph unicode="&#xf006;" d="M512 972.8c281.6 0 512-230.4 512-512s-230.4-512-512-512-512 230.4-512 512c0 281.6 230.4 512 512 512zM614.4 768h-204.8v-153.6h204.8v153.6zM614.4 512h-204.8v-358.4h204.8v358.4z" />
<glyph unicode="&#xf007;" d="M153.6 819.2h307.2v-716.8h-307.2v716.8zM563.2 102.4h307.2v716.8h-307.2v-716.8z" />
<glyph unicode="&#xf008;" d="M512 972.8c-281.6 0-512-230.4-512-512s230.4-512 512-512 512 230.4 512 512c0 281.6-230.4 512-512 512zM512 153.6c-168.96 0-307.2 138.24-307.2 307.2s138.24 307.2 307.2 307.2 307.2-138.24 307.2-307.2-138.24-307.2-307.2-307.2zM563.2 460.8h102.4v-102.4h-204.8v307.2h102.4v-204.8z" />
<glyph unicode="&#xf009;" d="M409.6 51.2l614.4 614.4-204.8 204.8-409.6-409.6-204.8 204.8-204.8-204.8z" />
<glyph unicode="&#xf00a;" d="M716.8 870.4h-409.6v102.4h409.6v-102.4zM1024 870.4v-921.6h-1024v921.6h204.8v-102.4h614.4v102.4h204.8zM307.2 307.2h-153.6v-153.6h153.6v153.6zM307.2 563.2h-153.6v-153.6h153.6v153.6zM870.4 307.2h-460.8v-153.6h460.8v153.6zM870.4 563.2h-460.8v-153.6h460.8v153.6z" />
<glyph unicode="&#xf00b;" d="M921.6 563.2h-256l102.4 409.6-665.6-614.4h256l-102.4-409.6z" />
<glyph unicode="&#xf00c;" d="M1018.88 399.36c0-245.76-189.44-440.32-435.2-440.32s-445.44 194.56-445.44 450.56h424.96v430.080c256 0 455.68-194.56 455.68-440.32zM460.8 512v455.68c-256-25.6-430.080-250.88-455.68-455.68h455.68z" />
<glyph unicode="&#xf00d;" d="M870.4 972.8h-716.8l-153.6-512v-512h1024v512l-153.6 512zM921.6 51.2h-819.2v307.2h819.2v-307.2zM819.2 153.6h-102.4v102.4h102.4v-102.4z" />
<glyph unicode="&#xf00e;" d="M102.4 972.8v-256l307.2-256v-358.4l204.8-153.6v512l307.2 256v256h-819.2zM819.2 768h-614.4v102.4h614.4v-102.4z" />
<glyph unicode="&#xf00f;" d="M1024 307.2v-358.4h-409.6v358.4h153.6v102.4h-512v-102.4h153.6v-358.4h-409.6v358.4h153.6v204.8h307.2v102.4h-153.6v358.4h409.6v-358.4h-153.6v-102.4h307.2v-204.8h153.6z" />
<glyph unicode="&#xf010;" d="M1024 972.8v-204.8h-1024v204.8h1024zM0-51.2h1024v204.8h-1024v-204.8zM0 358.4h1024v204.8h-1024v-204.8z" />
<glyph unicode="&#xf011;" d="M870.4 665.6v307.2h-716.8v-307.2h-102.4v-716.8h921.6v716.8h-102.4zM716.8 819.2v-153.6h-409.6v153.6h409.6zM614.4 153.6h-204.8v307.2h204.8v-307.2z" />
<glyph unicode="&#xf012;" d="M204.8 768h-204.8v204.8h204.8v-204.8zM1024 972.8h-614.4v-204.8h614.4v204.8zM204.8 563.2h-204.8v-204.8h204.8v204.8zM819.2 563.2h-409.6v-204.8h409.6v204.8zM204.8 153.6h-204.8v-204.8h204.8v204.8zM1024 153.6h-614.4v-204.8h614.4v204.8z" />
<glyph unicode="&#xf013;" d="M614.4 972.8h-614.4v-1024h1024v614.4h-409.6v409.6zM153.6 665.6h358.4v-102.4h-358.4v102.4zM870.4 153.6h-716.8v102.4h716.8v-102.4zM870.4 460.8v-102.4h-716.8v102.4h716.8zM1024 716.8v-51.2h-307.2v307.2h51.2l256-256z" />
<glyph unicode="&#xf014;" d="M512 972.8h-460.8v-819.2l460.8-204.8 460.8 204.8v819.2h-460.8zM819.2 256l-307.2-102.4v665.6h307.2v-563.2z" />
<glyph unicode="&#xf015;" d="M1024 307.2h-358.4v-358.4h-307.2v358.4h-358.4v307.2h358.4v358.4h307.2v-358.4h358.4v-307.2z" />
<glyph unicode="&#xf016;" d="M512 972.8c-281.6 0-512-230.4-512-512s230.4-512 512-512 512 230.4 512 512c0 281.6-230.4 512-512 512zM256 716.8h153.6v-153.6h-153.6v153.6zM512 153.6c-148.48 0-256 102.4-256 256h102.4c0-102.4 76.8-153.6 153.6-153.6s153.6 51.2 153.6 153.6h102.4c0-153.6-107.52-256-256-256zM768 563.2h-153.6v153.6h153.6v-153.6z" />
<glyph unicode="&#xf017;" d="M512 972.8c-281.6 0-512-230.4-512-512s230.4-512 512-512 512 230.4 512 512c0 281.6-230.4 512-512 512zM256 665.6h153.6v-153.6h-153.6v153.6zM665.6 153.6c0 102.4-76.8 153.6-153.6 153.6s-153.6-51.2-153.6-153.6h-102.4c0 153.6 107.52 256 256 256s256-102.4 256-256h-102.4zM768 512h-153.6v153.6h153.6v-153.6z" />
<glyph unicode="&#xf018;" d="M1024 102.4l-215.040 215.040c35.84 66.56 61.44 138.24 61.44 220.16 0 240.64-194.56 435.2-435.2 435.2s-435.2-194.56-435.2-435.2c0-240.64 194.56-435.2 435.2-435.2 81.92 0 153.6 20.48 220.16 61.44l215.040-215.040 153.6 153.6zM153.6 537.6c0 153.6 128 281.6 281.6 281.6s281.6-128 281.6-281.6-128-281.6-281.6-281.6-281.6 128-281.6 281.6z" />
<glyph unicode="&#xf019;" d="M1024 819.2l-307.2-307.2-153.6 153.6 307.2 307.2h-358.4l-204.8-204.8v-256l-307.2-312.32 250.88-250.88 312.32 307.2h256l204.8 204.8v358.4z" />
<glyph unicode="&#xf01a;" d="M762.88-10.24l-250.88 256-250.88-250.88-215.040 215.040 250.88 250.88-256 250.88 215.040 215.040 256-250.88 250.88 250.88 215.040-215.040-250.88-250.88 250.88-250.88-215.040-220.16z" />
<glyph unicode="&#xf01b;" d="M0 972.8v-819.2h204.8v-204.8l256 204.8h563.2v819.2h-1024zM768 409.6h-512v102.4h512v-102.4zM768 614.4h-512v102.4h512v-102.4z" />
<glyph unicode="&#xf01c;" d="M1024 512v-102.4h-133.12c-10.24-51.2-30.72-112.64-61.44-158.72l133.12-117.76-92.16-117.76-153.6 128c-40.96-25.6-97.28-51.2-148.48-56.32v-138.24h-107.52v133.12c-51.2 10.24-107.52 30.72-153.6 56.32l-148.48-128-92.16 112.64 133.12 122.88c-30.72 51.2-56.32 112.64-66.56 163.84h-133.12v102.4h133.12c10.24 51.2 30.72 112.64 61.44 158.72l-133.12 122.88 92.16 112.64 153.6-128c46.080 30.72 102.4 51.2 153.6 61.44v133.12h102.4v-133.12c51.2-10.24 107.52-30.72 148.48-56.32l153.6 128 92.16-112.64-133.12-122.88c30.72-51.2 56.32-112.64 66.56-163.84h133.12zM512 655.36c-107.52 0-194.56-87.040-194.56-194.56s87.040-194.56 194.56-194.56 194.56 87.040 194.56 194.56-87.040 194.56-194.56 194.56zM0 558.080h204.8v-199.68h-204.8v199.68zM819.2 552.96h204.8v-194.56h-204.8v194.56zM424.96 153.6h189.44v-204.8h-189.44v204.8zM419.84 972.8h194.56v-204.8h-194.56v204.8z" />
<glyph unicode="&#xf01d;" d="M875.52 824.32c-92.16 92.16-220.16 148.48-363.52 148.48s-271.36-56.32-363.52-148.48c-92.16-92.16-148.48-220.16-148.48-363.52s56.32-271.36 148.48-363.52 220.16-148.48 363.52-148.48 271.36 56.32 363.52 148.48c92.16 92.16 148.48 220.16 148.48 363.52s-56.32 271.36-148.48 363.52zM512 870.4c76.8 0 143.36-20.48 209.92-56.32l-76.8-76.8c-40.96 20.48-87.040 30.72-133.12 30.72s-92.16-10.24-133.12-30.72l-76.8 76.8c66.56 35.84 133.12 56.32 209.92 56.32zM102.4 460.8c0 76.8 20.48 143.36 56.32 209.92l76.8-76.8c-20.48-40.96-30.72-87.040-30.72-133.12s10.24-92.16 30.72-133.12l-76.8-76.8c-35.84 66.56-56.32 133.12-56.32 209.92zM512 51.2c-76.8 0-143.36 20.48-209.92 56.32l76.8 76.8c40.96-20.48 87.040-30.72 133.12-30.72s92.16 10.24 133.12 30.72l76.8-76.8c-66.56-35.84-133.12-56.32-209.92-56.32zM512 256c-56.32 0-107.52 20.48-143.36 61.44s-61.44 87.040-61.44 143.36 20.48 107.52 61.44 143.36c35.84 40.96 87.040 61.44 143.36 61.44s107.52-20.48 143.36-61.44c40.96-35.84 61.44-87.040 61.44-143.36s-20.48-107.52-61.44-143.36c-35.84-40.96-87.040-61.44-143.36-61.44zM865.28 250.88l-76.8 76.8c20.48 40.96 30.72 87.040 30.72 133.12s-10.24 92.16-30.72 133.12l76.8 76.8c35.84-66.56 56.32-133.12 56.32-209.92s-20.48-143.36-56.32-209.92z" />
<glyph unicode="&#xf01e;" d="M716.8 870.4h-409.6v102.4h409.6v-102.4zM1024 870.4v-921.6h-1024v921.6h204.8v-102.4h614.4v102.4h204.8zM358.4 256h-204.8v-153.6h204.8v153.6zM358.4 460.8h-204.8v-153.6h204.8v153.6zM358.4 665.6h-204.8v-153.6h204.8v153.6zM614.4 256h-204.8v-153.6h204.8v153.6zM614.4 460.8h-204.8v-153.6h204.8v153.6zM614.4 665.6h-204.8v-153.6h204.8v153.6zM870.4 256h-204.8v-153.6h204.8v153.6zM870.4 460.8h-204.8v-153.6h204.8v153.6zM870.4 665.6h-204.8v-153.6h204.8v153.6z" />
<glyph unicode="&#xf01f;" d="M548 965.943v-150.857h-89.714q-49.143 0-66.286-20.571t-17.143-61.714v-108h167.429l-22.286-169.143h-145.143v-433.714h-174.857v433.714h-145.714v169.143h145.714v124.571q0 106.286 59.429 164.857t158.286 58.571q84 0 130.286-6.857z" horiz-adv-x="585" />
<glyph unicode="&#xf020;" d="M925.714 739.657q-38.286-56-92.571-95.429 0.571-8 0.571-24 0-74.286-21.714-148.286t-66-142-105.429-120.286-147.429-83.429-184.571-31.143q-154.857 0-283.429 82.857 20-2.286 44.571-2.286 128.571 0 229.143 78.857-60 1.143-107.429 36.857t-65.143 91.143q18.857-2.857 34.857-2.857 24.571 0 48.571 6.286-64 13.143-106 63.714t-42 117.429v2.286q38.857-21.714 83.429-23.429-37.714 25.143-60 65.714t-22.286 88q0 50.286 25.143 93.143 69.143-85.143 168.286-136.286t212.286-56.857q-4.571 21.714-4.571 42.286 0 76.571 54 130.571t130.571 54q80 0 134.857-58.286 62.286 12 117.143 44.571-21.143-65.714-81.143-101.714 53.143 5.714 106.286 28.571z" horiz-adv-x="951" />
<glyph unicode="&#xf021;" d="M199.429 615.657v-566.286h-188.571v566.286h188.571zM211.429 790.514q0.571-41.714-28.857-69.714t-77.429-28h-1.143q-46.857 0-75.429 28t-28.571 69.714q0 42.286 29.429 70t76.857 27.714 76-27.714 29.143-70zM877.714 373.943v-324.571h-188v302.857q0 60-23.143 94t-72.286 34q-36 0-60.286-19.714t-36.286-48.857q-6.286-17.143-6.286-46.286v-316h-188q1.143 228 1.143 369.714t-0.571 169.143l-0.571 27.429h188v-82.286h-1.143q11.429 18.286 23.429 32t32.286 29.714 49.714 24.857 65.429 8.857q97.714 0 157.143-64.857t59.429-190z" />
<glyph unicode="&#xf022;" d="M420 517.943q0-20.571 18.286-40.286t44.286-38.857 51.714-42 44-59.429 18.286-81.143q0-51.429-27.429-98.857-41.143-69.714-120.571-102.571t-170.286-32.857q-75.429 0-140.857 23.714t-98 78.571q-21.143 34.286-21.143 74.857 0 46.286 25.429 85.714t67.714 65.714q74.857 46.857 230.857 57.143-18.286 24-27.143 42.286t-8.857 41.714q0 20.571 12 48.571-26.286-2.286-38.857-2.286-84.571 0-142.571 55.143t-58 139.714q0 46.857 20.571 90.857t56.571 74.857q44 37.714 104.286 56t124.286 18.286h238.857l-78.857-50.286h-74.857q42.286-36 64-76t21.714-91.429q0-41.143-14-74t-33.714-53.143-39.714-37.143-34-35.143-14-37.714zM336.571 572.8q21.714 0 44.571 9.429t37.714 24.857q30.286 32.571 30.286 90.857 0 33.143-9.714 71.429t-27.714 74-48.286 59.143-66.857 23.429q-24 0-47.143-11.143t-37.429-30q-26.857-33.714-26.857-91.429 0-26.286 5.714-55.714t18-58.857 29.714-52.857 42.857-38.286 55.143-14.857zM337.714 73.943q33.143 0 63.714 7.429t56.571 22.286 41.714 41.714 15.714 62.286q0 14.286-4 28t-8.286 24-15.429 23.714-16.857 20-22 19.714-20.857 16.571-23.714 17.143-20.857 14.857q-9.143 1.143-27.429 1.143-30.286 0-60-4t-61.429-14.286-55.429-26.286-39.143-42.571-15.429-60.286q0-40 20-70.571t52.286-47.429 68-25.143 72.857-8.286zM800.571 574.514h121.714v-61.714h-121.714v-125.143h-60v125.143h-121.143v61.714h121.143v124h60v-124z" horiz-adv-x="951" />
<glyph unicode="&#xf023;" d="M665.6 460.8l-153.6 153.6h-51.2l-153.6-153.6v-51.2h102.4v-153.6h153.6v153.6h102.4v51.2zM1024 296.96c0-51.2-20.48-102.4-61.44-138.24s-87.040-56.32-143.36-56.32h-578.56c-66.56 0-122.88 25.6-168.96 66.56s-71.68 97.28-71.68 163.84c0 46.080 10.24 87.040 35.84 122.88s56.32 66.56 102.4 81.92c0 10.24 0 15.36 0 20.48 0 71.68 25.6 133.12 81.92 184.32s112.64 76.8 189.44 76.8c56.32 0 107.52-15.36 153.6-46.080s81.92-66.56 102.4-117.76c25.6 20.48 56.32 30.72 87.040 30.72 35.84 0 71.68-10.24 97.28-35.84s40.96-56.32 40.96-92.16c0-25.6-5.12-51.2-20.48-71.68 46.080-10.24 81.92-35.84 112.64-66.56 25.6-35.84 40.96-76.8 40.96-122.88v0z" />
<glyph unicode="&#xf024;" d="M819.2 460.8l-204.8-204.8h-51.2v409.6h51.2l204.8-204.8zM204.8 460.8l204.8-204.8h51.2v409.6h-51.2l-204.8-204.8z" />
</font>
</defs>
</svg>
